Revenir au contenu principal
OpenID

Sujet: h265 mieux ou pas que le h264 (Lu 1606 fois) sujet précédent - sujet suivant

0 Membres et 1 Invité sur ce sujet
h265 mieux ou pas que le h264
hello

je suis en train de me renseigner de plus en plus sur le h265 et j'ai deux film dont les données extraites avec mediainfo sont:

1er en h264
Format                      : Matroska
Format version              : Version 4 / Version 2
File size                   : 6.87 GiB
Duration                    : 1 h 41 min
Overall bit rate            : 9 725 kb/s
Encoded date                : UTC 2016-03-24 20:39:30
Writing application         : mkvmerge v8.9.0 ('Father Daughter') 64bit
Writing library             : libebml v1.3.3 + libmatroska v1.4.4

Video
ID                          : 1
Format                      : AVC
Format/Info                 : Advanced Video Codec
Format profile              : High@L4.1
Format settings, CABAC      : Yes
Format settings, ReFrames   : 4 frames
Codec ID                    : V_MPEG4/ISO/AVC
Duration                    : 1 h 41 min
Bit rate                    : 8 219 kb/s
Width                       : 1 920 pixels
Height                      : 1 080 pixels
Display aspect ratio        : 16:9
Frame rate mode             : Constant
Frame rate                  : 23.976 (24000/1001) FPS
Color space                 : YUV
Chroma subsampling          : 4:2:0
Bit depth                   : 8 bits
Scan type                   : Progressive
Bits/(Pixel*Frame)          : 0.165
Stream size                 : 5.81 GiB (84%)
Writing library             : x264 core 114 r1913 5fd3dce
Encoding settings           : cabac=1 / ref=4 / deblock=1:0:0 / analyse=0x3:0x133 / me=umh / subme=7 / psy=1 / psy_rd=1.00:0.00 / mixed_ref=1 / me_range=16 / chroma_me=1 / trellis=1 / 8x8dct=1 / cqm=0 / deadzone=21,11 / fast_pskip=0 / chroma_qp_offset=-2 / threads=12 / sliced_threads=0 / nr=0 / decimate=1 / interlaced=0 / constrained_intra=0 / bframes=3 / b_pyramid=2 / b_adapt=1 / b_bias=0 / direct=1 / weightb=1 / open_gop=0 / weightp=2 / keyint=250 / keyint_min=23 / scenecut=40 / intra_refresh=0 / rc_lookahead=40 / rc=2pass / mbtree=1 / bitrate=8219 / ratetol=1.0 / qcomp=0.60 / qpmin=10 / qpmax=51 / qpstep=4 / cplxblur=20.0 / qblur=0.5 / ip_ratio=1.40 / aq=1:1.00
Default                     : Yes
Forced                      : No

Audio
ID                          : 2
Format                      : DTS
Format/Info                 : Digital Theater Systems
Mode                        : 16
Format settings, Endianness : Big
Codec ID                    : A_DTS
Duration                    : 1 h 41 min
Bit rate mode               : Constant
Bit rate                    : 1 509 kb/s
Channel(s)                  : 6 channels
Channel positions           : Front: L C R, Side: L R, LFE
Sampling rate               : 48.0 kHz
Frame rate                  : 93.750 FPS (512 spf)
Bit depth                   : 24 bits
Compression mode            : Lossy
Stream size                 : 1.07 GiB (16%)
Language                    : French
Default                     : Yes
Forced                      : No

Text #1
ID                          : 3
Format                      : UTF-8
Codec ID                    : S_TEXT/UTF8
Codec ID/Info               : UTF-8 Plain Text
Duration                    : 1 h 1 min
Bit rate                    : 0 b/s
Count of elements           : 5
Stream size                 : 95.0 Bytes (0%)
Language                    : French
Default                     : Yes
Forced                      : No

Text #2
ID                          : 4
Format                      : UTF-8
Codec ID                    : S_TEXT/UTF8
Codec ID/Info               : UTF-8 Plain Text
Duration                    : 1 h 34 min
Bit rate                    : 35 b/s
Count of elements           : 985
Stream size                 : 24.4 KiB (0%)
Language                    : French
Default                     : No
Forced                      : No


et la seconde en h265
Format                      : Matroska
Format version              : Version 4 / Version 2
File size                   : 2.41 GiB
Duration                    : 1 h 41 min
Overall bit rate            : 3 412 kb/s
Movie name                  : The Mask 1994 MULTI VFF 720p BLURAY AC3 x265-HTG
Encoded date                : UTC 2015-06-23 17:15:37 / UTC 2015-06-23T03:56:39Z
Writing application         : mkvmerge v7.9.0 ('Birds') 64bit
Writing library             : libebml v1.3.1 + libmatroska v1.4.2 / Lavf55.12.0

Video
ID                          : 1
Format                      : HEVC
Format/Info                 : High Efficiency Video Coding
Format profile              : Main@L3.1@Main
Codec ID                    : V_MPEGH/ISO/HEVC
Duration                    : 1 h 41 min
Bit rate                    : 2 448 kb/s
Width                       : 1 280 pixels
Height                      : 720 pixels
Display aspect ratio        : 16:9
Frame rate mode             : Constant
Frame rate                  : 23.976 (24000/1001) FPS
Color space                 : YUV
Chroma subsampling          : 4:2:0
Bit depth                   : 8 bits
Bits/(Pixel*Frame)          : 0.111
Stream size                 : 1.73 GiB (72%)
Writing library             : x265 1.5:[Mac OS X][clang 6.1.0][64 bit]
Encoding settings           : wpp / ctu=64 / tu-intra-depth=1 / tu-inter-depth=1 / me=1 / subme=2 / merange=57 / no-rect / no-amp / max-merge=2 / temporal-mvp / no-early-skip / no-fast-cbf / rdpenalty=0 / no-tskip / no-tskip-fast / strong-intra-smoothing / no-lossless / no-cu-lossless / no-constrained-intra / no-fast-intra / open-gop / interlace=0 / keyint=240 / min-keyint=24 / scenecut=40 / rc-lookahead=20 / bframes=4 / bframe-bias=0 / b-adapt=2 / ref=3 / weightp / no-weightb / aq-mode=1 / aq-strength=0.00 / cbqpoffs=0 / crqpoffs=0 / rd=3 / psy-rd=0.00 / psy-rdoq=0.00 / signhide / lft / sao / no-sao-non-deblock / b-pyramid / cutree / rc=2 / pass / bitrate=2500 / qcomp=0.60 / qpmin=0 / qpmax=51 / qpstep=4 / cplxblur=20.0 / qblur=0.5 / ipratio=1.40 / pbratio=1.30
Default                     : Yes
Forced                      : No
Color range                 : Limited
Color primaries             : BT.709
Transfer characteristics    : BT.709
Matrix coefficients         : BT.709
Statistics Tags Issue       : mkvmerge v7.9.0 ('Birds') 64bit 2015-06-23 17:15:37 / mkvmerge v7.9.0 ('Birds') 64bit 2015-06-23 17:15:37 / UTC 2015-06-23T03:56:39Z
FromStats_BitRate           : 2500539
FromStats_Duration          : 01:41:12.483000000
FromStats_FrameCount        : 145594
FromStats_StreamSize        : 1898060661

Audio #1
ID                          : 2
Format                      : AC-3
Format/Info                 : Audio Coding 3
Mode extension              : CM (complete main)
Format settings, Endianness : Big
Codec ID                    : A_AC3
Duration                    : 1 h 41 min
Bit rate mode               : Constant
Bit rate                    : 448 kb/s
Channel(s)                  : 6 channels
Channel positions           : Front: L C R, Side: L R, LFE
Sampling rate               : 48.0 kHz
Frame rate                  : 31.250 FPS (1536 spf)
Bit depth                   : 16 bits
Compression mode            : Lossy
Delay relative to video     : -5 ms
Stream size                 : 324 MiB (13%)
Title                       : Surround
Language                    : French
Default                     : Yes
Forced                      : No
Statistics Tags Issue       : mkvmerge v7.9.0 ('Birds') 64bit 2015-06-23 17:15:37 / mkvmerge v7.9.0 ('Birds') 64bit 2015-06-23 17:15:37 / UTC 2015-06-23T03:56:39Z
FromStats_BitRate           : 448000
FromStats_Duration          : 01:41:12.320000000
FromStats_FrameCount        : 189760
FromStats_StreamSize        : 340049920

Audio #2
ID                          : 3
Format                      : AC-3
Format/Info                 : Audio Coding 3
Mode extension              : CM (complete main)
Format settings, Endianness : Big
Codec ID                    : A_AC3
Duration                    : 1 h 41 min
Bit rate mode               : Constant
Bit rate                    : 448 kb/s
Channel(s)                  : 6 channels
Channel positions           : Front: L C R, Side: L R, LFE
Sampling rate               : 48.0 kHz
Frame rate                  : 31.250 FPS (1536 spf)
Bit depth                   : 16 bits
Compression mode            : Lossy
Delay relative to video     : -5 ms
Stream size                 : 324 MiB (13%)
Title                       : Surround
Language                    : English
Default                     : No
Forced                      : No
Statistics Tags Issue       : mkvmerge v7.9.0 ('Birds') 64bit 2015-06-23 17:15:37 / mkvmerge v7.9.0 ('Birds') 64bit 2015-06-23 17:15:37 / UTC 2015-06-23T03:56:39Z
FromStats_BitRate           : 448000
FromStats_Duration          : 01:41:12.288000000
FromStats_FrameCount        : 189759
FromStats_StreamSize        : 340048128

Text #1
ID                          : 4
Format                      : ASS
Codec ID                    : S_TEXT/ASS
Codec ID/Info               : Advanced Sub Station Alpha
Compression mode            : Lossless
Language                    : French
Default                     : No
Forced                      : No
Statistics Tags Issue       : mkvmerge v7.9.0 ('Birds') 64bit 2015-06-23 17:15:37 / mkvmerge v7.9.0 ('Birds') 64bit 2015-06-23 17:15:37 / UTC 2015-06-23T03:56:39Z
FromStats_BitRate           : 68
FromStats_Duration          : 01:34:48.982000000
FromStats_FrameCount        : 985
FromStats_StreamSize        : 48703

Text #2
ID                          : 5
Format                      : PGS
Muxing mode                 : zlib
Codec ID                    : S_HDMV/PGS
Codec ID/Info               : Picture based subtitle format used on BDs/HD-DVDs
Language                    : English
Default                     : No
Forced                      : No
Statistics Tags Issue       : mkvmerge v7.9.0 ('Birds') 64bit 2015-06-23 17:15:37 / mkvmerge v7.9.0 ('Birds') 64bit 2015-06-23 17:15:37 / UTC 2015-06-23T03:56:39Z
FromStats_BitRate           : 13077
FromStats_Duration          : 01:40:15.801000000
FromStats_FrameCount        : 2826
FromStats_StreamSize        : 9833604

Menu
00:00:00.000                : :Chapitre 01
00:03:43.848                : :Chapitre 02
00:06:59.419                : :Chapitre 03
00:09:38.744                : :Chapitre 04
00:12:28.080                : :Chapitre 05
00:15:02.985                : :Chapitre 06
00:17:51.612                : :Chapitre 07
00:22:56.375                : :Chapitre 08
00:26:33.592                : :Chapitre 09
00:30:34.416                : :Chapitre 10
00:33:59.829                : :Chapitre 11
00:37:36.087                : :Chapitre 12
00:39:43.172                : :Chapitre 13
00:42:54.655                : :Chapitre 14
00:46:03.052                : :Chapitre 15
00:48:42.920                : :Chapitre 16
00:52:56.506                : :Chapitre 17
00:55:48.094                : :Chapitre 18
01:00:49.479                : :Chapitre 19
01:04:04.549                : :Chapitre 20
01:09:10.604                : :Chapitre 21
01:16:04.017                : :Chapitre 22
01:19:52.371                : :Chapitre 23
01:26:11.875                : :Chapitre 24
01:28:49.532                : :Chapitre 25
01:33:06.706                : :Chapitre 26


quand je lis les birates je me dis la h264 est mieux en qualité non? pourtant quand je fais des arrêts sur image je ne vois pas trop de différences....

alors h265 mieux ou pas?

  • Panorappix
  • [*][*][*][*][*]
  • Tipiak!
Re : h265 mieux ou pas que le h264
Réponse #1
la qualité peut être là même, en revanche, regardes la taille de ton fichier ...

Re : h265 mieux ou pas que le h264
Réponse #2
a oui bien sur je sais que le h265 est plus économique en terme de taille c'est sur mais ce que je veux dire je cherche la qualité principalement point de vue visuel donc pour reformuler ma quesiton qu'elle est pour vous la meilleur sur ce point de vue là si on ne prend pas en compte la taille du fichier?

  • Panorappix
  • [*][*][*][*][*]
  • Tipiak!
Re : h265 mieux ou pas que le h264
Réponse #3
à taille de fichier équivalente, tu peux avoir une meilleure qualité sur le 265, car plus de flux et de bp disponible.

mais encore une fois, la qualité dépend déjà de la source !

  • roura97311
  • [*][*][*][*][*][*][*]
  • Designer MPDb.tv
Re : h265 mieux ou pas que le h264
Réponse #4
Bon en même temps tes 2 fichiers sont de résolution différente 1920 pour le H264 et 1280 pour le H265
Mini M8S II / Beelink  GT1 / Minix Neo U9-H --> Krypton 17.5
Mon SKIN ici

  • BabaOrum
  • [*][*][*][*][*]
Re : h265 mieux ou pas que le h264
Réponse #5
Les deux fichiers ne sont pas comparable (taille différente, codec audio différents, etc..).

Ton fichier H265 est plutôt en micro HD (pas l'autre), de plus, les débits H264 VS H265, ne sont pas comparable.

Perso, j'ai adopté le H265, la contre partie du poids, c'est l'occupation du processeur qui est plus importante en H265, il faut veiller à ne pas prendre des bitrates trop élevés, sous peine d'avoir des saccades en lecture.

Certains ont aussi remarqué une légère perte de luminosité.

  • athos690
  • [*][*][*][*][*][*][*]
  • Guide
Re : h265 mieux ou pas que le h264
Réponse #6
...mais encore une fois, la qualité dépend déjà de la source !
C'est clair !!
D'autant que chaque réencodage supplémentaire induira forcément une perte de qualité, il n'y a pas de miracle.

Je pense que les BR même en FHD finiront par être tous encodés d'origine en H265 et là ça aura du sens. Par contre passer des heures pour encoder en H265 une source en H264 pour gagner quelques Go de place ce n'est pas très rationnel en tous cas pour l'instant où l'encodage H265 prend un temps fou.
Beebox 7200U-Windows 10-Krypton 17.6.
NUC i3 (Windows 7) faisant office de serveur de fichiers et MySQL avec Uwamp.
Disque USB3 2,5" 4 To


GMS Krypton.

  • roura97311
  • [*][*][*][*][*][*][*]
  • Designer MPDb.tv
Re : h265 mieux ou pas que le h264
Réponse #7
+1
Mini M8S II / Beelink  GT1 / Minix Neo U9-H --> Krypton 17.5
Mon SKIN ici

 
SimplePortal 1.0.0 Beta 1 © 2008-2014